#TITLE:Sakasama no Chou;
#SUBTITLE:- Jigoku Shoujo 1st Opening;
#ARTIST:SNoW;
#TITLETRANSLIT:;
#SUBTITLETRANSLIT:;
#ARTISTTRANSLIT:;
#CREDIT:True Ancestor;
#BANNER:jigokushoujobanner.png;
#BACKGROUND:jigokushoujo1.png;
#LYRICSPATH:;
#CDTITLE:trueancestor.png;
#MUSIC:Jigoku_Shoujo_-_Sakasama_No_Chou_(TV_Size).mp3;
#OFFSET:0.460;
#SAMPLESTART:2.540;
#SAMPLELENGTH:24.220;
#SELECTABLE:YES;
#BPMS:0.000=90.000;
#STOPS:131.750=0.087
,131.875=0.087
,132.000=0.087
;
#BGCHANGES:0.250=Sakamasa no Chou.avi=1.000=0=0=1,
132.333=jigokushoujo1.png=1.000=1=0=1,
99999=-nosongbg-=1.000=0=0=0 // don't automatically add -songbackground-
;
// cache tags:
#FIRSTBEAT:1.250;
#LASTBEAT:132.125;
#SONGFILENAME:songs/Otaku's Dream 3rd Anime Mix/[TrueAncestor] Sakasama no Chou - Jigoku Shoujo OP/Sakamasa no Chou.sm;
#HASMUSIC:1;
#HASBANNER:1;
#MUSICLENGTH:89.312;
// end cache tags

//---------------dance-single - ----------------
#NOTES:
     dance-single:
     :
     Challenge:
     10:
     0.960,0.795,1.000,0.672,1.000,406.000,134.000,60.000,0.000,0.000:

0000
0000
0000
0000
0000
1000
1000
2000
0000
3000
0100
0200
0000
0310
0020
0000
,
0031
0000
0000
0002
0000
0000
0000
0000
0003
2100
0000
0000
0000
0000
0000
3200
0000
0000
0000
0000
0000
1300
0000
0000
0001
0000
0000
0100
0000
0000
0000
0000
0000
1020
0000
0000
0000
0000
0000
0032
0000
0000
0000
0000
0000
0103
0000
0000
,
1000
0010
0000
0200
0000
2300
0000
3001
1000
0100
0000
1010
0000
0110
0000
0101
,
0000
1001
0000
0120
0000
2030
0000
3010
1000
0100
0000
0021
0000
0230
0000
0310
,
0001
0100
0000
1020
0000
0230
0000
1300
0010
0001
0000
1100
0000
1001
0000
0110
,
0000
1001
0000
0120
0000
2030
0000
3001
0010
0100
0000
2010
0000
3002
0000
1003
,
0100
0010
0000
0102
0000
0023
0000
1030
0100
0001
0000
1010
0000
0011
0000
1010
,
0000
0011
0000
2010
0000
3200
0000
0301
1000
0100
0000
2001
0000
3002
0000
0013
,
1000
0100
0000
1010
0000
0101
0000
1001
0000
1010
0000
0011
0000
0110
2200
0000
,
0300
0000
0000
3020
0000
0000
0000
0000
0030
1200
0000
0000
0000
0000
0000
0302
0000
0000
0000
0000
0000
0103
0000
0000
0001
0000
0000
0010
0000
0000
0000
0000
0000
0102
0000
0000
0000
0000
0000
2003
0000
0000
0000
0000
0000
3001
0000
0000
,
0100
1000
0000
0021
0000
2030
0000
3100
0001
1000
0000
0110
0000
0011
0000
1100
,
0000
1001
0000
0210
0000
2300
0000
3001
1000
0100
0000
0120
0000
0032
0000
0103
,
0001
1000
0000
1020
0000
1030
0001
0100
0010
1000
0100
1001
0000
0011
0220
0000
,
0300
0000
0000
2030
0000
0000
0000
0000
3000
0201
0000
0000
0000
0000
0000
0320
0000
0000
0000
0000
0000
0130
0000
0000
0001
0000
0000
0010
0000
0000
0000
0000
0000
1002
0000
0000
0000
0000
0000
0203
0000
0000
0000
0000
0000
0310
0000
0000
,
1000
0001
0000
2010
0000
3002
0000
0103
1000
0001
0000
1100
0000
0110
0000
0011
,
0000
0011
0000
2100
0000
3020
0000
0031
0010
1000
0000
0012
0000
0103
0000
1010
,
0000
0000
0100
0000
0000
0000
1001
0000
0000
0000
0100
0000
0000
0000
0011
0000
1000
0000
0110
0000
0000
0001
0010
0000
0100
0000
0010
0000
1000
0000
0001
0000
,
0010
0100
1000
0110
0001
0100
0010
1100
0001
1000
0100
1001
0001
0100
0010
1100
,
0001
0100
0010
1010
0100
1000
0100
1001
0100
0010
0001
1010
0100
0001
0100
0011
,
1000
0100
0010
0110
1000
0010
1000
0101
0010
1000
0001
0110
0010
0100
0001
1100
,
0010
1001
0101
0110
0000
1100
0101
0000
0220
0000
0330
1010
0100
0001
1000
0110
,
0100
0001
0100
1001
0100
1000
0010
1100
0001
0100
1000
0101
1000
0001
0100
0110
,
0001
0010
0100
1010
0100
1000
0010
0011
0001
0100
0010
1100
0100
1000
0100
1010
,
0001
0010
0100
0011
0100
0010
1000
0011
1000
0100
1000
1100
0010
0100
0001
1100
,
1000
0011
0011
1100
0000
0110
0101
0000
2002
0000
3003
0001
0010
0100
1000
0100
,
0010
0001
1000
0101
1000
0001
0100
1010
0100
0010
0100
1001
0001
0010
0001
1100
,
0001
0100
0010
1100
0001
1000
0001
0110
0001
0100
0010
1001
1000
0100
1000
0011
,
0100
0001
0100
1010
0001
0100
1000
1100
0010
0100
0010
0011
0010
0100
1000
0101
,
1000
0011
1001
0110
0000
1010
1001
0000
0220
0000
0330
0100
0001
0100
0010
0110
,
1000
0100
0010
1001
0010
0100
1000
0011
1000
0001
0100
1010
0100
0010
0001
1001
,
0001
0010
0100
1010
0001
1000
0010
1100
0010
1000
0100
0011
0001
0100
0010
1010
,
0100
1000
0001
1100
0001
0010
1000
0110
0001
1000
0100
0011
0100
1000
0100
0011
,
0001
0000
0110
0000
1001
0000
0101
0000
0000
0000
0011
0000
1010
0000
0000
0000
0220
0000
0000
0000
0330
0000
1000
0000
0100
0000
1000
0000
0001
0000
1100
1010
,
0101
0110
0000
0000
0000
0000
0000
0000
0000
0000
0000
0000
0000
0000
0000
0000
0000
0000
0000
0000
0000
0000
0000
0000
0000
0000
0000
0000
0000
0000
0000
0000
;

//---------------dance-single - Blank----------------
#NOTES:
     dance-single:
     Blank:
     Hard:
     8:
     0.806,0.629,0.717,1.000,1.000,292.000,64.000,148.000,0.000,0.000:








0000
0000
0000
0000
0000
1000
0001
0220
0000
0330
1000
0022
0030
0013
2002
3003
,
0001
2020
3030
1100
0000
0110
0000
0100
0010
0100
0001
0200
0000
1300
0010
0200
,
0000
2300
0000
3020
0000
0032
0000
2003
0000
3010
0100
0020
0000
2030
0000
3002
,
0000
0000
2003
0000
0000
3000
0110
0000
0000
0000
0110
0000
0000
0000
1000
0000
0001
0000
1000
0000
0100
0000
2000
0000
0000
0000
3020
0000
0000
0000
2030
0000
,
0000
3200
0000
1300
0000
1010
0000
0101
0000
1100
0000
0022
0000
0000
0030
0100
,
0000
0000
0000
0000
0103
0000
0000
0000
0000
0000
0000
0000
1100
0000
0000
0000
0000
0000
0000
0000
0011
0000
0000
0000
0000
0000
0000
1000
0100
0000
0000
0000
0000
0000
0000
0000
1000
0000
0000
0000
0100
0000
0000
0000
0010
0000
0000
0000
0000
0000
0000
0000
0010
0000
0000
0000
0001
0000
0000
0000
0020
0000
0000
0000
,
0000
0032
0000
0023
0000
0230
0000
2300
0000
3001
1000
0020
0000
0032
0000
0203
,
0000
2300
3002
0000
0000
0003
0010
0001
0100
0001
0100
1000
0000
1100
0000
0110
,
0000
2200
0000
0000
3300
0001
0000
0010
0000
2002
0000
0000
3003
0010
0000
1000
,
0000
0000
0202
0000
0000
0000
0000
0000
0303
0000
0000
0000
0001
0000
0010
0000
2000
0000
0000
0000
0000
0002
3000
0000
0000
0000
0203
0000
0000
0000
0302
0000
,
0000
0000
0203
0000
0000
0000
0000
0000
0300
0000
0000
0000
0010
0000
1000
0000
0200
0000
0000
0000
0000
0020
0300
0000
0000
0000
0032
0000
0000
0000
2003
0000
,
0000
3002
0000
0000
0003
0000
0100
1000
0020
0000
0031
2000
0000
3020
0000
0032
,
0000
0203
0000
0000
0300
1000
0010
1000
0010
1000
0202
0000
0000
0000
0303
0110
,
0000
1001
0000
0011
0000
0110
0000
1100
0000
0022
0000
0000
0000
0033
0000
1001
,
0000
2020
0000
0000
3030
0110
0000
1010
0000
0101
0000
1001
0000
0011
0000
1001
,
0000
0220
0000
0000
0330
0100
1000
0200
0000
0301
0100
0002
0000
0013
0200
0000
,
0000
2300
0000
0020
0000
0000
0000
3030
0000
0020
0002
0000
0000
0000
0000
0033
,
0000
0010
1000
0001
0000
0100
2200
0000
3300
0001
0000
0010
0000
0001
0022
0000
,
0033
0100
1000
0020
0000
0230
0000
0302
0000
0203
0000
2300
0000
3001
0220
0000
,
0330
0010
0000
1000
0000
0100
0220
0000
0330
0001
0000
0100
0000
0001
0022
0000
,
0033
0100
0001
2000
0000
3001
2200
0300
0020
0000
3030
0010
0010
1000
1000
0001
,
0001
0100
0100
0010
0000
0001
2200
0000
3300
0100
0000
0010
0000
0001
0220
0000
,
0330
2000
0000
3002
0000
0023
0000
0230
0000
2300
0000
3200
0000
0301
2002
0000
,
3003
0010
0000
1000
0000
0001
0202
0000
0303
1000
0000
0001
0000
0010
2002
0000
,
3003
1000
0001
0200
0000
1300
2020
0030
0002
0000
3003
1000
0100
0001
0100
1000
,
0100
0001
0100
1000
0000
0010
0022
0000
0033
0001
0000
0010
0000
0100
2200
0300
,
3001
0010
0100
0020
0030
0020
0030
0020
0030
2000
3000
2000
3000
1000
2002
0000
,
3003
0100
0000
0001
0000
0001
0022
0000
0033
0010
0000
0100
0000
1000
2020
0000
,
3030
0100
0001
0200
0000
0310
2020
0030
0002
3003
1000
0001
1000
0001
0100
0010
,
0100
0001
0100
0010
0000
0100
0202
0000
0303
1000
0000
0001
0000
0001
2020
0000
,
3030
2000
0000
3020
0030
0200
0000
0302
0000
0103
0010
0200
0000
1300
0202
0000
,
0303
0001
0000
0010
0000
0100
2200
0000
3300
1000
0000
0100
0000
0010
0022
0000
,
0033
0000
1001
0000
0011
0000
2002
0000
0000
3003
0110
0000
0022
0000
0030
0000
0200
0000
0000
0000
0303
0000
0010
0000
0100
0000
0001
0000
0100
0000
1000
0010
,
0100
1001
0000
0000
0000
0000
0000
0000
0000
0000
0000
0000
0000
0000
0000
0000
0000
0000
0000
0000
0000
0000
0000
0000
0000
0000
0000
0000
0000
0000
0000
0000
;

//---------------dance-single - ----------------
#NOTES:
     dance-single:
     :
     Medium:
     6:
     0.461,0.351,0.179,0.179,1.000,256.000,16.000,16.000,0.000,0.000:







0000
0000
0000
0000
0000
0000
0000
1000
0000
0000
0001
1000
0000
0001
1000
0000
,
0001
1000
0000
1000
0000
0010
0000
2000
0000
0000
0000
3001
0000
0010
0000
0200
,
0000
0000
0000
0301
0000
0100
0000
0001
0000
0100
0000
1000
0000
0100
0000
0001
,
0000
0100
0000
1000
0000
0010
0000
2000
0000
0000
0000
3001
0000
0010
0000
0002
,
0000
0000
0000
1003
0000
0010
0000
1000
0000
0100
0000
1000
0000
0100
0000
0001
,
0000
0100
0000
0010
0000
0001
0000
0200
0000
0000
0000
1300
0000
0010
0000
0002
,
0000
0000
0000
0103
0000
1000
0000
0100
0000
0001
0000
0010
0000
0100
0000
1000
,
0000
0001
0000
0100
0000
0010
0000
2000
0000
0000
0000
3010
0000
0100
0000
0020
,
0000
0000
0000
1030
0000
0010
0000
1000
0000
0001
0000
1000
0000
0001
0000
1000
,
0000
0100
0000
1000
0000
0010
0000
0200
0000
0000
0300
0001
0000
0010
0000
0200
,
0000
0000
0000
1300
0000
0100
0000
0010
0000
0001
0000
0010
0000
0100
0000
1000
,
0000
0100
0000
0010
0000
0100
0000
0020
0000
0000
0000
1030
0000
0010
0000
2000
,
0000
0000
0000
3001
0000
0100
0000
0001
0000
1000
0000
0100
0000
1000
0000
0100
,
0000
0010
0000
0100
0000
0001
0000
2000
0000
0000
0000
3100
0000
1000
0000
0020
,
0000
0000
0000
0031
0000
0010
0000
0100
0000
0001
0000
0010
0000
0100
0000
1000
,
0000
0100
0000
0010
0000
0100
0000
0002
0000
0000
0000
1003
0000
0001
0000
0200
,
0000
0000
0000
0310
0000
1000
0000
0001
0000
1000
0000
0010
0000
0100
0000
0001
,
0000
1000
0001
1000
0000
0000
0110
0000
0000
1000
0001
1000
0000
0000
0110
0000
,
0000
0100
0010
0100
0000
0010
0000
0100
0000
1000
0000
0001
0000
1000
0000
0001
,
0000
1000
0001
1000
0000
0000
0011
0000
0000
1000
0010
1000
0000
0000
0011
0000
,
0000
1000
0001
1000
0000
0001
0000
1000
0000
0001
0000
1000
0000
0001
0000
0100
,
0000
0001
1000
0001
0000
0000
1010
0000
0000
1000
0001
1000
0000
0000
1010
0000
,
0000
0001
0000
0010
0000
0100
0000
1000
0000
0100
0000
1000
0000
0100
0000
1000
,
0000
0001
0010
0001
0000
0000
1100
0000
0000
0001
0010
0001
0000
0000
1100
0000
,
0000
0001
1000
0001
0000
1000
0000
0001
0000
1000
0000
0100
0000
1000
0000
0001
,
0000
0100
0001
0100
0000
0000
1001
0000
0000
1000
0001
1000
0000
0000
1001
0000
,
0000
0100
0010
0100
0000
1000
0000
0100
0000
1000
0000
0010
0000
0001
0000
0010
,
0000
0100
1000
0100
0000
0000
0101
0000
0000
1000
0010
1000
0000
0000
0101
0000
,
0000
0010
0001
0010
0000
0100
0000
0010
0000
0100
0000
1000
0000
0100
0000
1000
,
0000
0010
0001
0010
0000
0000
0101
0000
0000
1000
0010
1000
0000
0000
1100
0000
,
0000
0001
0000
1000
0000
0001
0000
1000
0000
0100
1000
0100
0000
0010
0000
0100
,
0000
0010
0001
0010
0000
0000
0101
0000
0000
0010
0100
0010
0000
0000
1001
0000
,
0000
0000
0010
0000
0001
0000
0010
0000
0000
0000
0100
0000
0000
0000
1000
0000
0000
0000
0100
0000
0000
0000
1000
0000
0000
0000
0100
0000
0000
0000
0100
0100
,
0100
0100
0000
0000
0000
0000
0000
0000
0000
0000
0000
0000
0000
0000
0000
0000
0000
0000
0000
0000
0000
0000
0000
0000
0000
0000
0000
0000
0000
0000
0000
0000
;

//---------------dance-single - ----------------
#NOTES:
     dance-single:
     :
     Easy:
     3:
     0.205,0.148,0.011,0.213,0.605,108.000,1.000,19.000,0.000,0.000:



0000
0000
0000
0000
,
0000
0000
0000
1000
0000
0000
0000
0001
0000
0000
0000
1000
0000
0000
0000
0001
,
0000
0000
0000
1000
0000
0000
0000
0001
0000
0000
0000
0010
0000
0000
0000
0001
,
0000
0000
0000
0010
0000
0000
0000
0001
0000
0000
0000
1000
0000
0000
0000
0100
,
0000
0000
0000
1000
0000
0000
0000
0100
0000
0000
0000
0010
0000
0000
0000
0001
,
0000
0000
0000
0010
0000
0000
0000
0001
0000
0000
0000
0100
0000
0000
0000
0001
,
0000
0000
0000
1000
0000
0000
0000
0001
0000
0000
0000
1000
0000
0000
0000
0010
,
0000
0000
0000
1000
0000
0000
0000
0100
0000
0000
0000
0001
0000
0000
0000
0010
,
0000
0000
0000
0001
0000
0000
0000
0100
0000
0000
0000
1000
0000
0000
0000
0010
,
0000
0000
0000
1000
0000
0000
0000
0100
0000
0000
0000
1000
0000
0000
0000
0010
,
0000
0000
0000
0100
0000
0000
0000
0001
0000
0000
0000
0100
0000
0000
0000
1000
,
0000
0000
0000
0010
0000
0000
0000
0100
0000
0000
0000
0010
0000
0000
0000
0100
,
0000
0000
0000
0010
0000
0000
0000
1000
0000
0000
0000
0001
0000
0000
0000
1000
,
0000
0000
0000
0100
0000
0000
0000
0001
0000
0000
0000
0100
0000
0000
0000
0010
,
0000
0000
0000
1000
0000
0000
0000
0010
0000
0000
0000
0100
0000
0000
0000
0010
,
0000
0000
0000
0001
0000
0000
0000
0100
0000
0000
0000
0010
0000
0000
0000
1000
,
0000
0000
0000
2002
0000
0000
0000
0000
0000
0000
0000
0000
0000
0000
0000
0000
,
0000
0000
3003
2000
0000
0000
0000
0000
0000
0000
0000
0002
0000
0000
0000
0000
,
0000
0000
3003
1000
0000
0000
0000
0001
0000
0000
0000
1000
0000
0000
0000
0001
,
0000
0000
0000
2000
0000
0000
0000
0000
0000
0000
0000
0020
0000
0000
0000
0000
,
0000
0000
3030
1000
0000
0000
0000
0100
0000
0000
0000
0001
0000
0000
0000
1000
,
0000
0000
0000
0020
0000
0000
0000
0000
0000
0000
0000
0200
0000
0000
0000
0000
,
0000
0000
0330
0010
0000
0000
0000
0001
0000
0000
0000
0010
0000
0000
0000
1000
,
0000
0000
0000
0200
0000
0000
0000
0000
0000
0000
0000
2000
0000
0000
0000
0000
,
0000
0000
3300
0001
0000
0000
0000
0010
0000
0000
0000
0100
0000
0000
0000
1000
,
0000
0000
0000
0002
0000
0000
0000
0000
0000
0000
0000
2000
0000
0000
0000
0000
,
0000
0000
3003
0001
0000
0000
0000
0010
0000
0000
0000
0100
0000
0000
0000
0001
,
0000
0000
0000
2000
0000
0000
0000
0000
0000
0000
0000
0002
0000
0000
0000
0000
,
0000
0000
3003
1000
0000
0000
0000
0100
0000
0000
0000
1000
0000
0000
0000
0010
,
0000
0000
0000
0200
0000
0000
0000
0000
0000
0000
0000
0020
0000
0000
0000
0000
,
0000
0000
0330
1000
0000
0000
0000
0001
0000
0000
0000
1000
0000
0000
0000
0010
,
0000
0000
0000
0020
0000
0000
0000
0000
0000
0000
0000
2000
0000
0000
0000
0000
,
0000
0000
3030
1000
0000
0000
0000
0100
0000
0000
0000
0002
0000
0000
0000
0000
,
0000
0003
0000
0000
0000
0000
0000
0000
0000
0000
0000
0000
0000
0000
0000
0000
0000
0000
0000
0000
0000
0000
0000
0000
0000
0000
0000
0000
0000
0000
0000
0000
;
